#TITLE:viTŦ;
#SUBTITLE:- 16H[W1970;
#ARTIST:touhou;
#TITLETRANSLIT:;
#SUBTITLETRANSLIT:;
#ARTISTTRANSLIT:;
#CREDIT:;
#BANNER:dad.png;
#BACKGROUND:dad2.png;
#LYRICSPATH:;
#CDTITLE:dad.png;
#MUSIC:viTŦ - 16H[W1970.mp3;
#OFFSET:-3.000;
#SAMPLESTART:0.020;
#SAMPLELENGTH:11.940;
#SELECTABLE:YES;
#BPMS:0.000=162.160,96.000=108.100,128.000=162.160;
#STOPS:;
#BGCHANGES:;
// cache tags:
#FIRSTBEAT:0.000;
#LASTBEAT:191.938;
#SONGFILENAME:Songs/nhac/touhou16in/viTŦ - 16H[W1970.sm;
#HASMUSIC:1;
#HASBANNER:1;
#MUSICLENGTH:80.172;
// end cache tags

//---------------dance-single - ----------------
#NOTES:
     dance-single:
     :
     Medium:
     10:
     1.000,1.000,0.012,0.025,1.000,813.000,1.000,2.000,0.000,0.000:
1000
0100
0010
0001
1000
0100
0010
0001
1000
0010
0100
0001
1000
0010
0100
0001
,
0010
0100
1000
0100
0010
0000
0000
0000
0000
0000
0000
0000
0001
0010
0100
1000
,
0100
0001
0010
1000
0001
0010
1000
0100
0010
0001
0100
0010
1000
0001
0010
0100
,
1000
0001
0010
0001
0100
0001
1000
0010
0100
1000
0010
0001
0100
0001
1000
0000
,
0001
0010
0100
1000
0001
0010
0100
1000
0001
0100
0010
1000
0001
0100
0010
1000
,
0010
0100
1000
0001
0010
0100
1000
0001
0010
1000
0001
0100
0010
1000
0001
1000
,
1000
0010
0100
0100
0100
1000
0001
0100
1000
0001
0010
0100
0010
0010
0001
0100
,
0001
0100
0010
1000
0001
1000
0010
0100
1000
0100
0010
0001
1000
0010
0100
0001
,
1000
0100
1000
0100
0001
1000
0100
0010
0100
0010
0001
0100
0010
0001
0010
0001
,
1000
0010
1000
0010
0001
1000
0001
0100
0001
0100
1000
0001
0010
0100
0010
0100
,
0001
0010
0001
0010
1000
0001
0100
0010
0100
0010
1000
0010
0001
0100
0001
0100
,
1000
0001
1000
0001
0100
1000
0100
0010
0100
0010
1000
0100
0010
1000
0010
1000
,
0001
0100
0010
1000
0100
0001
0010
1000
0100
0001
0010
0100
0010
1000
0100
0010
,
0100
1000
0001
0010
1000
0100
0001
1000
0100
0001
1000
0010
0100
0001
0100
1000
,
0010
0001
0010
1000
0010
0001
0010
0100
0010
0100
1000
0100
0001
0100
0010
0100
,
1000
0100
0010
1000
0100
0001
1000
0100
1000
0100
1000
0001
1000
0001
1000
0001
,
0100
0010
0100
0010
0001
1000
0010
1000
0010
1000
0001
1000
0010
0100
0010
0100
,
0010
0001
0010
0001
1000
0001
0100
0001
0100
0001
0010
0001
1000
0001
1000
0001
,
1000
0100
1000
0100
0001
1000
0100
0010
0100
0010
1000
0100
0010
1000
0010
1000
,
0010
0001
1000
0100
0001
1000
0100
0010
0100
0010
0001
1000
0010
0100
0010
0001
,
1000
0100
1000
0100
0001
1000
0100
1000
0100
0010
0001
0010
0100
0010
0100
0001
,
0010
0001
0010
0001
1000
0001
0100
0010
0100
0010
1000
0010
0001
0010
0100
1000
,
0001
0010
0001
0010
1000
0010
1000
0100
1000
0100
1000
0010
0001
1000
0001
1000
,
0010
0100
0010
0100
0001
1000
0100
1000
0100
0010
1000
0001
0100
1000
0001
0010
,
1000
0100
0010
1000
0010
0001
0100
0010
0001
1000
0100
0001
1000
0100
1000
0001
0010
0001
1000
0100
1000
0001
0010
0001
,
1000
0010
0001
1000
0100
0001
1000
0100
0010
0100
0010
0001
0010
0100
1000
0001
0010
0100
0010
0100
1000
0001
0010
0100
,
1000
0001
1000
0010
0100
0010
0001
1000
0001
0100
0010
0100
0010
1000
0010
0100
0001
0100
0001
1000
0001
1000
0001
1000
,
0010
0100
0001
1000
0010
0100
0001
1000
0010
0100
0001
0010
0100
0010
0001
1000
0010
0001
1000
0100
0001
1000
0010
0001
,
1000
0001
0100
0001
1000
0010
0100
0001
0100
0010
1000
0010
1000
0010
0001
1000
0100
0001
0100
1000
0100
0010
0001
0010
,
0001
0010
0100
0001
0100
1000
0001
0010
1000
0010
0100
1000
0010
0100
0010
1000
0010
1000
0001
1000
0001
0100
0001
0100
,
0001
1000
0001
0010
0001
0100
0010
1000
0001
0100
0010
1000
0001
0010
0100
0001
0010
0100
1000
0100
0010
1000
0100
0010
,
0001
0100
1000
0001
0100
0010
1000
0010
0001
1000
0010
0100
1000
0100
0010
0001
0010
0100
1000
0100
0010
0001
0010
0100
,
2002
0000
3003
0000
0000
0000
0000
0000
0000
0000
0000
0000
1000
0000
0000
0100
0000
0000
0010
0000
0000
0001
0000
0000
1000
0000
0000
0010
0000
0000
0100
0000
0000
0001
0000
0000
1000
0000
0000
0100
0000
0000
0010
0000
0000
0001
0000
0000
,
0010
0100
1000
0010
0100
0000
0000
0000
0000
0000
0000
0000
0001
0010
0100
1000
,
0100
0001
1000
0010
0001
1000
0010
0100
1000
0010
0001
0010
1000
0001
0100
0010
,
0100
0001
1000
0010
0001
0100
0010
1000
0010
0001
0100
0001
0100
0001
1000
0000
,
1000
0100
0010
0001
1000
0010
0100
0001
1000
0100
0010
0001
0010
0001
0010
0100
,
1000
0100
1000
0100
0010
0100
0010
0001
0010
0001
0100
0001
1000
0001
0100
0001
,
0001
0100
0001
0001
0001
1000
0001
0010
0100
0001
0100
1000
0100
0100
0010
0001
,
1000
0100
0010
0001
1000
0100
0010
0001
1000
0010
0100
0001
1000
0100
0010
0001
,
1000
0100
1000
0100
0001
1000
0010
0001
1000
0010
1000
0010
0001
1000
0100
0010
,
0001
0010
0001
0010
1000
0001
0100
0010
0100
0010
1000
0001
0010
1000
0001
1000
,
0100
0001
1000
0100
1000
0100
0001
0100
0001
1000
0001
1000
0001
0010
0001
1000
,
0100
0001
0100
0001
1000
0001
0100
0010
1000
0010
0001
1000
0100
0010
0100
0010
,
0001
1000
0001
1000
0100
0001
1000
0010
1000
0010
0100
0001
0010
0100
0010
0100
,
0001
0010
1000
0100
0001
1000
0010
0001
0010
1000
0001
1000
0100
0010
0100
0001
,
1000
0010
1000
0010
0001
1000
0100
0010
0100
0010
0001
0100
0010
0001
0010
0001
,
1000
0001
1000
0100
0001
1000
0010
0001
1000
0010
0001
1000
0100
0001
1000
0010
;

//---------------dance-single - Copied from----------------
#NOTES:
     dance-single:
     Copied from:
     Hard:
     12:
     1.000,1.000,1.000,0.025,1.000,833.000,127.000,2.000,0.000,0.000:
1001
0100
0010
0001
1000
0100
0010
0001
1000
0010
0100
0001
1000
0010
0100
0001
,
0010
0100
1000
0100
0010
0000
0000
0000
0000
0000
0000
0000
0001
0010
0100
1000
,
0110
0001
0010
1000
0001
0010
1000
0100
0010
0001
0100
0010
1000
0001
0010
0100
,
1000
0001
0010
0001
0100
0001
1000
0010
0100
1000
0010
0001
0100
0001
1000
0000
,
0101
0010
0100
1000
0001
0010
0100
1000
0001
0100
0010
1000
0001
0100
0010
1000
,
0011
0100
1000
0001
0010
0100
1000
0001
0010
1000
0001
0100
0010
1000
0001
1000
,
1000
0010
0100
0100
0100
1000
0001
0100
1000
0001
0010
0100
0010
0010
0001
0100
,
0001
0000
0100
0000
0010
0000
1000
0000
0001
0000
1000
0000
0010
0000
0100
0000
1000
0000
0100
0000
1000
0001
1000
0001
1000
0000
0100
0000
0010
0000
0001
0000
,
1010
0100
1000
0100
0011
1000
0100
0010
0100
0010
0001
0100
1010
0001
0010
0001
,
1100
0010
1000
0010
0101
1000
0001
0100
0001
0100
1000
0001
1010
0100
0010
0100
,
1001
0010
0001
0010
1100
0001
0100
0010
0100
0010
1000
0010
1001
0100
0001
0100
,
1010
0001
1000
0001
0110
1000
0100
0010
0100
0010
1000
0100
0011
1000
0010
1000
,
0011
0100
0010
1000
0110
0001
0010
1000
0100
0001
0010
0100
0011
1000
0100
0010
,
0101
1000
0001
0010
1001
0100
0001
1000
0100
0001
1000
0010
1100
0001
0100
1000
,
0110
0001
0010
1000
0110
0001
0010
0100
0010
0100
1000
0100
1001
0100
0010
0100
,
1001
0100
0010
1000
0110
0001
1000
0100
1000
0100
1000
0001
1010
0001
1000
0001
,
1100
0010
0100
0010
0101
1000
0010
1000
0010
1000
0001
1000
0011
0100
0010
0100
,
1010
0001
0010
0001
1100
0001
0100
0001
0100
0001
0010
0001
1010
0001
1000
0001
,
1010
0100
1000
0100
0011
1000
0100
0010
0101
0010
1000
0100
0010
1000
0010
1000
,
0110
0001
1000
0100
0011
1000
0100
0010
0101
0010
0001
1000
0010
0100
0010
0001
,
1010
0100
1000
0100
0011
1000
0100
1000
0101
0010
0001
0010
0100
0010
0100
0001
,
1010
0001
0010
0001
1100
0001
0100
0010
0101
0010
1000
0010
0001
0010
0100
1000
,
0101
0010
0001
0010
1001
0010
1000
0100
1010
0100
1000
0010
0001
1000
0001
1000
,
0011
0000
0100
0000
0010
0000
0100
0000
0011
0000
1000
0000
0100
0000
1000
0000
0011
1000
0011
0100
0011
1000
0011
0100
0011
1000
0011
0100
0011
1000
0011
0100
,
1001
0100
0010
1100
0010
0001
1100
0010
0001
1010
0100
0001
1010
0100
1000
0101
0010
0001
1010
0100
1000
0101
0010
0001
,
1100
0010
0001
1010
0100
0001
1010
0100
0010
1100
0010
0001
1010
0100
1000
0101
0010
0100
1010
0100
1000
0101
0010
0100
,
1010
0001
1000
0011
0100
0010
0101
1000
0001
1100
0010
0100
0011
1000
0010
1100
0001
0100
0011
1000
0001
1010
0001
1000
,
0011
0100
0001
1100
0010
0100
0011
1000
0010
1100
0001
0010
1100
0010
0001
1100
0010
0001
1010
0100
0001
1100
0010
0001
,
1010
0001
0100
0011
1000
0010
1100
0001
0100
0011
1000
0010
1001
0010
0001
1010
0100
0001
0110
1000
0100
1010
0001
0010
,
1001
0010
0100
1001
0100
1000
0101
0010
1000
0011
0100
1000
0011
0100
0010
1100
0010
1000
0101
1000
0001
1100
0001
0100
,
0011
1000
0001
1010
0001
0100
0011
1000
0001
1100
0010
1000
0101
0010
0100
1001
0010
0100
1010
0100
0010
1001
0100
0010
,
1001
0100
1000
0001
0100
0010
1100
0010
0001
1100
0010
0100
1010
0100
0010
1100
0010
0100
1010
0101
1010
0101
1010
0101
,
2020
0000
3030
0000
0000
0000
0000
0000
0000
0000
0000
0000
1000
0000
0000
0100
0000
0000
0010
0000
0000
0001
0000
0000
1000
0000
0000
0010
0000
0000
0100
0000
0000
0001
0000
0000
1000
0000
0000
0100
0000
0000
0010
0000
0000
0001
0000
0000
,
0010
0100
1000
0010
0100
0000
0000
0000
0000
0000
0000
0000
0001
0010
0100
1000
,
0100
0001
1000
0010
0001
1000
0010
0100
1000
0010
0001
0010
1000
0001
0100
0010
,
0100
0001
1000
0010
0001
0100
0010
1000
0010
0001
0100
0001
0100
0001
1000
0000
,
1000
0100
0010
0001
1000
0010
0100
0001
1000
0100
0010
0001
0010
0001
0010
0100
,
1000
0100
1000
0100
0010
0100
0010
0001
0010
0001
0100
0001
1000
0001
0100
0001
,
0001
0000
0100
0000
0001
0000
0001
0000
0001
0000
1000
0000
0001
0000
0010
0000
0100
0000
0001
0000
0100
0001
0100
0001
0100
0000
0100
0000
0010
0000
0001
0000
,
1000
0100
0010
0001
1000
0100
0010
0001
1000
0010
0100
0001
1000
0100
0010
0001
,
1000
0100
1000
0100
0001
1000
0010
0001
1000
0010
1000
0010
0001
1000
0100
0010
,
0001
0010
0001
0010
1000
0001
0100
0010
0100
0010
1000
0001
0010
1000
0001
1000
,
0100
0001
1000
0100
1000
0100
0001
0100
0001
1000
0001
1000
0001
0010
0001
1000
,
0100
0001
0100
0001
1000
0001
0100
0010
1000
0010
0001
1000
0100
0010
0100
0010
,
0001
1000
0001
1000
0100
0001
1000
0010
1000
0010
0100
0001
0010
0100
0010
0100
,
0001
0010
1000
0100
0001
1000
0010
0001
0010
1000
0001
1000
0100
0010
0100
0001
,
1000
0010
1000
0010
0001
1000
0100
0010
0100
0010
0001
0100
0010
0001
0010
0001
,
1000
0000
0001
0000
1000
0000
0100
0000
0001
0000
1000
0000
0010
0000
0001
0000
1000
0001
1000
0001
1000
0001
1000
0001
0100
0010
0100
0010
0100
0010
0100
0010
;

//---------------dance-single - sux----------------
#NOTES:
     dance-single:
     sux:
     Challenge:
     15:
     1.000,1.000,1.000,0.025,1.000,863.000,451.000,2.000,0.000,4.000:
1001
0100
1010
0001
1010
0100
0011
0100
1001
0010
1100
0001
0110
1000
0110
0001
,
1010
0100
0011
0100
1001
0000
0000
0000
0000
0000
0000
0000
0101
0010
1100
0001
,
0110
0001
0110
1000
0101
0010
1001
0100
1010
0001
1100
0010
1100
0001
1010
0100
,
1010
0001
0110
0001
1100
0001
1100
0010
0101
1000
0110
0001
1100
0001
1010
0000
,
0101
0010
1100
0010
0101
0010
1100
0010
1001
0100
0011
1000
0011
0100
1010
0100
,
0011
0100
1010
0001
1010
0100
0011
1000
0110
0001
1100
0001
0110
1000
0011
1100
,
1100
0001
0110
0110
0110
1001
0110
1000
0011
1000
0011
0100
1010
0100
1001
0010
,
1001
0000
0100
0000
0011
0000
1000
0000
0101
0000
1000
0000
0011
0000
0100
0000
1010
0000
0100
0000
0011
1100
0011
1101
0011
0000
0100
0000
1010
0000
0001
0000
,
1110
0001
1010
0100
0011
1000
0101
0010
1100
0010
1001
0100
1010
0001
0110
0001
,
1100
0010
1001
0010
0101
1000
0011
0100
0011
0100
1010
0001
1100
0001
1010
0100
,
1001
0010
0101
0010
1100
0001
1100
0010
0101
0010
1100
0010
1001
0100
0011
0100
,
1010
0001
1100
0001
0110
1000
0101
0010
0101
0010
1001
0100
0011
1000
0110
1000
,
0011
0100
0011
1000
0110
0001
0110
1000
0110
0001
1010
0100
0011
1000
0101
0010
,
0101
1000
0101
0010
1001
0100
0011
1000
0110
0001
1100
0010
1001
0010
0101
1000
,
0110
0001
1010
0100
0011
1000
0011
0100
1010
0100
0011
0100
1001
0100
0011
0100
,
1001
0100
0011
1000
0110
0001
1010
0100
1001
0010
1100
0001
1010
0001
1100
0001
,
1100
0010
0101
0010
0101
1000
0110
1000
0110
1000
0011
1000
0011
0100
1010
0100
,
1010
0001
0110
0001
1100
0001
0110
0001
1100
0001
0110
0001
1100
0001
1100
0001
,
1110
0001
1010
0100
0011
1000
0101
0010
1100
0010
1001
0100
0011
1000
0110
1000
,
0110
0001
1010
0100
0011
1000
0101
0010
1100
0010
0101
1000
0011
0100
1010
0001
,
1010
0100
1010
0100
0011
1000
0110
1000
0101
0010
1001
0010
1100
0010
1100
0001
,
1010
0001
1010
0001
1100
0001
1100
0010
0101
0010
1001
0010
0101
0010
0101
1000
,
0101
0010
1001
0010
1001
0100
0011
0100
1010
0001
1100
0010
0101
1000
0011
1000
,
0011
0000
0100
0000
1010
0000
0100
0000
0011
0000
1000
0000
0101
0000
1000
0000
1001
0010
0101
0010
1100
0001
0110
1000
0011
1000
0110
0001
1100
0010
0101
0010
,
1001
0100
0011
1100
0001
0110
1001
0010
0101
1010
0001
0110
1001
0100
1010
0101
0010
0101
1010
0100
1010
0101
1000
0011
,
1100
0010
0101
1010
0001
0110
1001
0100
0011
1100
0010
0101
1010
0100
1010
0101
0010
0101
1010
0100
1010
0101
0010
0101
,
1010
0001
1100
0011
0100
1010
0101
1000
0011
1100
0010
1100
0011
1000
0011
1100
0001
1100
0011
1000
0101
1010
0001
1100
,
0011
0100
0011
1100
0010
1100
0011
1000
0011
1100
0001
0110
1001
0100
0011
1100
0010
0101
1010
0100
0011
1100
0010
0101
,
1010
0001
1100
0011
1000
0011
1100
0001
1100
0011
1000
0110
1001
0010
0101
1010
0100
1001
0110
1000
0101
1010
0001
0110
,
1001
0010
0101
1010
0100
1010
0101
0010
1100
0011
0100
1010
0101
1000
0011
1100
0001
1010
0101
1000
0011
1100
0001
1100
,
0011
1000
0101
1010
0001
1100
0011
1000
0011
1100
0001
1010
0101
1000
0110
1001
0010
0101
1010
0001
0110
1001
0100
1010
,
0101
0010
1100
0011
0100
0011
1100
0010
1100
0011
1000
0100
1010
0101
0010
1101
0010
0101
1010
0101
1010
0101
1010
0101
,
2020
0000
3030
0000
0000
0000
0000
0000
0000
0000
0000
0000
1001
0000
0010
0100
1000
0000
0110
0000
1000
0001
0100
0000
1010
0000
0001
0010
1000
0000
0101
0000
1000
0001
0000
0000
1000
0000
0010
0100
0001
0000
1010
0000
0100
0001
1000
0000
,
0010
0000
1000
0001
0010
0000
1100
0000
0001
0010
0000
0000
0100
0000
0000
0000
0000
0000
0000
0000
0000
0000
0000
0000
0000
0000
0000
0000
0000
0000
0000
0000
0000
0000
0000
0000
0101
0000
0000
1010
0000
0000
0101
0000
0000
1010
0000
0000
,
0101
0010
1001
0010
0101
1000
0011
0100
1001
0010
0101
0010
1100
0001
1100
0010
,
0101
0010
1100
0010
1001
0100
0011
1000
0110
0001
1100
0001
0110
0001
1100
0000
,
1001
0100
1010
0001
1100
0010
1100
0001
1010
0100
1010
0001
0110
0001
1010
0100
,
1001
0100
1010
0100
0011
0100
1010
0001
0110
0001
0110
0001
1100
0001
0110
1001
,
1001
0000
0100
0000
0011
0000
0011
0000
0011
0000
1000
0000
0101
0000
0010
0000
1100
0000
0001
0000
0110
1001
0110
1001
0110
0000
1000
0000
0110
0000
0001
0000
,
1010
0100
0011
0100
1010
0100
0011
0100
1001
0010
1100
0001
1010
0100
1010
0001
,
1010
0100
1001
0100
0011
1000
0110
0001
1100
0010
1001
0010
0101
1000
0101
0010
,
1001
0010
0101
0010
1100
0001
1100
0010
0101
0010
1100
0001
0110
1000
0011
1000
,
0110
0001
1010
0100
1001
0100
1001
0100
0011
1000
0101
1000
0101
0010
0101
1000
,
0110
0001
1100
0001
1100
0001
1100
0010
1001
0010
0101
1000
0101
0010
1100
0010
,
0101
1000
0011
1000
0110
0001
1100
0010
1001
0010
1100
0001
1010
0100
0011
0100
,
1001
0010
1001
0100
0011
1000
0110
0001
0110
1000
0011
1000
0101
0010
1100
0001
,
1100
0010
1001
0010
0101
1000
0101
0010
1100
0010
1001
0100
1010
0001
0110
0001
,
1010
0000
0000
0000
0001
0000
0000
0000
1010
0000
0000
0000
0100
0000
0000
0000
0011
0000
0000
0000
1000
0000
0000
0000
0010
0000
0000
0000
0001
0000
0000
0000
1000
0001
1000
0001
1000
0001
1000
0001
1000
0001
1000
0001
1000
0001
1000
0001
0100
0010
0100
0010
0100
0010
0100
0010
0100
0010
0100
0010
0100
0010
0100
0010
;
